Details for this torrent 

MythBusters S08E03 hdtv.XviD-XAX
Type:
Video > TV shows
Files:
2
Size:
417.34 MiB (437608726 Bytes)
Spoken language(s):
English
Texted language(s):
English
Uploaded:
2010-04-13 00:16:28 GMT
By:
Anonymous
Seeders:
1
Leechers:
0
Comments
1  

Info Hash:
4D05FEA6EF5446305F8F01DC90EE2B9AAE3C461F




   
General
Format                           : Matroska
File size                        : 417 MiB
Duration                         : 43mn 32s
Overall bit rate                 : 1 340 Kbps
Encoded date                     : UTC 2010-04-12 21:58:47
Writing application              : mkvmerge v3.2.0 ('Beginnings') built on Feb 12 2010 16:46:17
Writing library                  : libebml v0.7.9 + libmatroska v0.8.1
========================
Video
ID                               : 1
Format                           : MPEG-4 Visual
Format profile                   : Advanced [email protected]
Format settings, BVOP            : No
Format settings, QPel            : No
Format settings, GMC             : No warppoints
Format settings, Matrix          : Default (MPEG)
Codec ID                         : XVID
Codec ID/Hint                    : XviD
Duration                         : 43mn 32s
Bit rate                         : 1 186 Kbps
Width                            : 624 pixels
Height                           : 352 pixels
Display aspect ratio             : 16:9
Frame rate                       : 29.970 fps
Resolution                       : 8 bits
Colorimetry                      : 4:2:0
Scan type                        : Progressive
Bits/(Pixel*Frame)               : 0.180
Stream size                      : 369 MiB (88%)
Writing library                  : XviD 1.1.2 (UTC 2006-11-01)
========================
Audio
ID                               : 2
Format                           : MPEG Audio
Format version                   : Version 1
Format profile                   : Layer 3
Codec ID                         : A_MPEG/L3
Codec ID/Hint                    : MP3
Duration                         : 43mn 32s
Bit rate mode                    : Constant
Bit rate                         : 128 Kbps
Channel(s)                       : 2 channels
Sampling rate                    : 44.1 KHz
Stream size                      : 39.9 MiB (10%)
Writing library                  : LAMELAME_MAJOR_VERSI

Comments

yay karis back